HDTShare - High Definition Shares

HDTShare - High Definition Shares (http://www.pngbase.com/)
-   HD - 1080p to 720p (http://www.pngbase.com/hd-1080p-720p/)
-   -   [Turbobit] Bright 2017 NF 1080p DD 5.1 x264-SadeceBluRay (http://www.pngbase.com/hd-1080p-720p/bright-2017-nf-1080p-dd-5-1-x264-sadecebluray-367021.html)

ArchangeL® 12-22-2017 05:11 AM

Bright 2017 NF 1080p DD 5.1 x264-SadeceBluRay
 
http://i.hizliresim.com/7y0PRP.jpg



Bright 2017 NF 1080p DD 5.1 x264-SadeceBluRay




http://img.imgur.com/mJqn0Z0.jpg
You will have to reply to see hidden content



Code:


General
Filename.......: Bright.2017.NF.1080p.DD.5.1.x264-SadeceBluRay.mkv
FileSize.......: 5.80 GiB
Duration.......: 1 h 57 min

Video
Codec..........: AVC x264 [email protected]
Resolution.....: 1920x804
Aspect ratio...: 2.40:1
Bit rate.......: 6 900 kb/s
Frame rate.....: 24 fps

Audio
Language.......: English
Channels.......: 6 CH
Format.........: AC3
Bit rate.......: 384 kb/s

Subtitle.......: English
Subtitle.......: Dutch
Subtitle.......: German
Subtitle.......: French
Subtitle.......: Spanish

FULL NFO

Code:

Format                                  : Matroska
Format version                          : Version 4 / Version 2
File size                                : 5.80 GiB
Duration                                : 1 h 57 min
Overall bit rate                        : 7 044 kb/s
Encoded date                            : UTC 2017-12-22 11:41:41
Writing application                      : mkvmerge v8.1.0 ('Psychedelic Postcard') 64bit
Writing library                          : libebml v1.3.1 + libmatroska v1.4.2

Video
ID                                      : 1
Format                                  : AVC
Format/Info                              : Advanced Video Codec
Format profile                          : [email protected]
Format settings                          : CABAC / 5 Ref Frames
Format settings, CABAC                  : Yes
Format settings, RefFrames              : 5 frames
Codec ID                                : V_MPEG4/ISO/AVC
Duration                                : 1 h 57 min
Bit rate                                : 6 900 kb/s
Width                                    : 1 920 pixels
Height                                  : 804 pixels
Display aspect ratio                    : 2.40:1
Frame rate mode                          : Constant
Frame rate                              : 24.000 FPS
Color space                              : YUV
Chroma subsampling                      : 4:2:0
Bit depth                                : 8 bits
Scan type                                : Progressive
Bits/(Pixel*Frame)                      : 0.186
Stream size                              : 5.48 GiB (95%)
Writing library                          : x264 core 152 r2851 ba24899
Encoding settings                        : cabac=1 / ref=5 / deblock=1:-3:-3 / analyse=0x3:0x133 / me=umh / subme=8 / psy=1 / psy_rd=1.00:0.00 / mixed_ref=1 / me_range=32 / chroma_me=1 / trellis=2 / 8x8dct=1 / cqm=0 / deadzone=21,11 / fast_pskip=0 / chroma_qp_offset=-2 / threads=12 / lookahead_threads=2 / sliced_threads=0 / nr=0 / decimate=0 / interlaced=0 / bluray_compat=0 / constrained_intra=1 / bframes=8 / b_pyramid=2 / b_adapt=1 / b_bias=0 / direct=0 / weightb=1 / open_gop=0 / weightp=0 / keyint=240 / keyint_min=24 / scenecut=50 / intra_refresh=0 / rc_lookahead=50 / rc=abr / mbtree=0 / bitrate=6900 / ratetol=1.0 / qcomp=0.60 / qpmin=0 / qpmax=69 / qpstep=4 / vbv_maxrate=62500 / vbv_bufsize=78125 / nal_hrd=none / filler=0 / ip_ratio=1.40 / pb_ratio=1.30 / aq=2:2.00
Default                                  : Yes
Forced                                  : No
Color range                              : Limited
Matrix coefficients                      : BT.709

Audio
ID                                      : 2
Format                                  : AC-3
Format/Info                              : Audio Coding 3
Codec ID                                : A_AC3
Duration                                : 1 h 57 min
Bit rate mode                            : Constant
Bit rate                                : 384 kb/s
Channel(s)                              : 6 channels
Channel positions                        : Front: L C R, Side: L R, LFE
Sampling rate                            : 48.0 kHz
Frame rate                              : 31.250 FPS (1536 SPF)
Bit depth                                : 16 bits
Compression mode                        : Lossy
Stream size                              : 323 MiB (5%)
Language                                : English
Service kind                            : Complete Main
Default                                  : Yes
Forced                                  : No

Text #1
ID                                      : 3
Format                                  : UTF-8
Codec ID                                : S_TEXT/UTF8
Codec ID/Info                            : UTF-8 Plain Text
Duration                                : 1 h 56 min
Bit rate                                : 52 b/s
Count of elements                        : 1540
Stream size                              : 44.5 KiB (0%)
Language                                : German
Default                                  : Yes
Forced                                  : No

Text #2
ID                                      : 4
Format                                  : UTF-8
Codec ID                                : S_TEXT/UTF8
Codec ID/Info                            : UTF-8 Plain Text
Duration                                : 1 h 51 min
Bit rate                                : 47 b/s
Count of elements                        : 1315
Stream size                              : 39.1 KiB (0%)
Language                                : Dutch
Default                                  : No
Forced                                  : No

Text #3
ID                                      : 5
Format                                  : UTF-8
Codec ID                                : S_TEXT/UTF8
Codec ID/Info                            : UTF-8 Plain Text
Duration                                : 1 h 56 min
Bit rate                                : 76 b/s
Count of elements                        : 1978
Stream size                              : 65.4 KiB (0%)
Language                                : English
Default                                  : No
Forced                                  : No

Text #4
ID                                      : 6
Format                                  : UTF-8
Codec ID                                : S_TEXT/UTF8
Codec ID/Info                            : UTF-8 Plain Text
Duration                                : 1 h 56 min
Bit rate                                : 51 b/s
Count of elements                        : 1465
Stream size                              : 44.3 KiB (0%)
Language                                : French
Default                                  : No
Forced                                  : No

Text #5
ID                                      : 7
Format                                  : UTF-8
Codec ID                                : S_TEXT/UTF8
Codec ID/Info                            : UTF-8 Plain Text
Duration                                : 1 h 56 min
Bit rate                                : 48 b/s
Count of elements                        : 1620
Stream size                              : 41.9 KiB (0%)
Language                                : Spanish
Default                                  : No
Forced                                  : No

http://thumbs2.imagebam.com/9a/44/51...2695543443.jpg http://thumbs2.imagebam.com/23/f6/e9...9695543473.jpg http://thumbs2.imagebam.com/69/2d/e4...0695543513.jpg http://thumbs2.imagebam.com/e0/89/6c...d695543533.jpg http://thumbs2.imagebam.com/c7/9b/ba...6695543573.jpg http://thumbs2.imagebam.com/c0/a2/5d...c695543593.jpg http://thumbs2.imagebam.com/ad/25/74...8695543603.jpg http://thumbs2.imagebam.com/51/d7/b4...5695543613.jpg


brain 12-22-2017 06:13 AM

Re: Bright 2017 NF 1080p DD 5.1 x264-SadeceBluRay
 
thankss

Marcelo 12-22-2017 07:46 AM

Re: Bright 2017 NF 1080p DD 5.1 x264-SadeceBluRay
 
Muchas gracias por el aporte.

Lotnar 12-22-2017 09:05 AM

Re: Bright 2017 NF 1080p DD 5.1 x264-SadeceBluRay
 
Thanks

kaiser2387 12-22-2017 09:11 AM

Re: Bright 2017 NF 1080p DD 5.1 x264-SadeceBluRay
 
thanks

amdmaxx 12-22-2017 09:42 AM

Re: Bright 2017 NF 1080p DD 5.1 x264-SadeceBluRay
 
good movie

geese 12-22-2017 10:02 AM

Re: Bright 2017 NF 1080p DD 5.1 x264-SadeceBluRay
 
Gracias Brother

pietrograzzi 12-22-2017 10:48 AM

Re: Bright 2017 NF 1080p DD 5.1 x264-SadeceBluRay
 
Thanks

lynx 12-22-2017 11:22 AM

Re: Bright 2017 NF 1080p DD 5.1 x264-SadeceBluRay
 
Thanks :)

ichaus 12-22-2017 12:11 PM

Re: Bright 2017 NF 1080p DD 5.1 x264-SadeceBluRay
 
thank you so much


All times are GMT -7. The time now is 07:47 AM.

Powered by vBulletin® Version 3.8.8
Copyright ©2000 - 2018, vBulletin Solutions, Inc.
Search Engine Friendly URLs by vBSEO 3.6.0
HDTShare.Com